Download Free The Last Stand 2013 BRRip 720p x264 AAC Full Movie

Download Free The Last Stand 2013 BRRip 720p x264 AAC Full Movie

 

Download Free The Last Stand 2013 BRRip 720p x264 AAC Full Movie
General
Complete name : The Last Stand 2013 BRRip 720p x264 AAC – PRiSTiNE.mp4
Format : MPEG-4
File size : 601 MiB
Duration : 1h 47mn
Overall bit rate mode : Variable
Overall bit rate : 785 Kbps

Video
Format : AVC
Format/Info : Advanced Video Codec
Format profile : High [email protected]
Bit rate : 703 Kbps
Width : 1 264 pixels
Height : 528 pixels
Display aspect ratio : 2.40:1
Frame rate mode : Constant
Frame rate : 24.000 fps
Bit depth : 10 bits
Stream size : 538 MiB (89%)
Writing library : x264 core 130 r2273 b3065e6

Audio
Format : AAC
Format/Info : Advanced Audio Codec
Bit rate mode : Variable
Bit rate : 80.0 Kbps
Channel(s) : 2 channels
Channel positions : Front: L R
Sampling rate : 48.0 KHz / 24.0 KHz
Stream size : 61.2 MiB (10%)

>>>>>Download Links<<<<<
Tags: The Last Stand 2013 BRRip 720p,The Last Stand 2013 BRRip 720p hollywood movie,The Last Stand 2013 BRRip 720p english movie,The Last Stand 2013 BRRip 720p free download,The Last Stand 2013 BRRip 720p watch online,The Last Stand 2013 BRRip 720p full movie,The Last Stand 2013 BRRip 720p full download
Download Free The Last Stand 2013 BRRip 720p x264 AAC Full Movie was last modified: by

Leave a Reply

Your email address will not be published. Required fields are marked *